Go Back   FormKaos: Board > Music Discussion > Simply Music

Simply Music All genres, hot artists, track ID and general discussion

Reply
 
LinkBack Topic Tools Rate Topic
  #1 (permalink)  
Old Nov 29, 03
Gravity Slave
 
Join Date: Apr 2001
MC Hammered has a spectacular aura aboutMC Hammered has a spectacular aura about
Dig Dug

Damn he is good! :y:
Reply With Quote
  #2 (permalink)  
Old Nov 29, 03
Registered User
 
Join Date: Nov 2002
mojo is just really nicemojo is just really nicemojo is just really nicemojo is just really nicemojo is just really nicemojo is just really nice
yes, yes he is
Reply With Quote
  #3 (permalink)  
Old Nov 29, 03
Gravity Slave
 
Join Date: Apr 2001
MC Hammered has a spectacular aura aboutMC Hammered has a spectacular aura about
Unreal set off that CD.

At the 60 minute mark he just makes magic happen!

This is one CD that is staying in the car.

Right click and "Save As":

ftp://temp:user@mchammered.nailed.or...-2002-boss.mp3
Reply With Quote
  #4 (permalink)  
Old Nov 29, 03
Registered User
 
Join Date: Nov 2002
mojo is just really nicemojo is just really nicemojo is just really nicemojo is just really nicemojo is just really nicemojo is just really nice
is that his second mix, dig this too?
Reply With Quote
  #5 (permalink)  
Old Nov 29, 03
Gravity Slave
 
Join Date: Apr 2001
MC Hammered has a spectacular aura aboutMC Hammered has a spectacular aura about
Dunno.

Here is the cuefile. If anyone has a tracklist it would be appreciated.

PERFORMER "Dig Dug"
TITLE "Dig This"
FILE "01-dig_dug_-_dig_this-2002-boss.mp3" MP3
TRACK 01 AUDIO
TITLE "Track01"
PERFORMER "Unknown Artist"
INDEX 01 00:00:00
TRACK 02 AUDIO
TITLE "Track02"
PERFORMER "Unknown Artist"
INDEX 01 03:45:72
TRACK 03 AUDIO
TITLE "Track03"
PERFORMER "Unknown Artist"
INDEX 01 08:29:11
TRACK 04 AUDIO
TITLE "Track04"
PERFORMER "Unknown Artist"
INDEX 01 13:29:63
TRACK 05 AUDIO
TITLE "Track05"
PERFORMER "Unknown Artist"
INDEX 01 16:47:74
TRACK 06 AUDIO
TITLE "Track06"
PERFORMER "Unknown Artist"
INDEX 01 19:37:59
TRACK 07 AUDIO
TITLE "Track07"
PERFORMER "Unknown Artist"
INDEX 01 21:30:69
TRACK 08 AUDIO
TITLE "Track08"
PERFORMER "Unknown Artist"
INDEX 01 24:06:28
TRACK 09 AUDIO
TITLE "Track09"
PERFORMER "Unknown Artist"
INDEX 01 27:17:21
TRACK 10 AUDIO
TITLE "Track10"
PERFORMER "Unknown Artist"
INDEX 01 29:21:01
TRACK 11 AUDIO
TITLE "Track11"
PERFORMER "Unknown Artist"
INDEX 01 34:18:26
TRACK 12 AUDIO
TITLE "Track12"
PERFORMER "Unknown Artist"
INDEX 01 37:08:11
TRACK 13 AUDIO
TITLE "Track13"
PERFORMER "Unknown Artist"
INDEX 01 41:51:08
TRACK 14 AUDIO
TITLE "Track14"
PERFORMER "Unknown Artist"
INDEX 01 46:55:27
TRACK 15 AUDIO
TITLE "Track15"
PERFORMER "Unknown Artist"
INDEX 01 51:27:68
TRACK 16 AUDIO
TITLE "Track16"
PERFORMER "Unknown Artist"
INDEX 01 56:32:27
TRACK 17 AUDIO
TITLE "Track17"
PERFORMER "Unknown Artist"
INDEX 01 60:18:67
TRACK 18 AUDIO
TITLE "Track18"
PERFORMER "Unknown Artist"
INDEX 01 63:50:67
TRACK 19 AUDIO
TITLE "Track19"
PERFORMER "Unknown Artist"
INDEX 01 67:22:47
TRACK 20 AUDIO
TITLE "Track20"
PERFORMER "Unknown Artist"
INDEX 01 73:29:27
Reply With Quote
  #6 (permalink)  
Old Nov 29, 03
Registered User
 
Join Date: Nov 2002
mojo is just really nicemojo is just really nicemojo is just really nicemojo is just really nicemojo is just really nicemojo is just really nice
it appears to be the original dig this, but i thought it came out in 2001.......

meh
Reply With Quote
  #7 (permalink)  
Old Nov 29, 03
Gravity Slave
 
Join Date: Apr 2001
MC Hammered has a spectacular aura aboutMC Hammered has a spectacular aura about
Anyone have the new CD? :c-tard:
Reply With Quote
  #8 (permalink)  
Old Nov 29, 03
kiMMie's Avatar
Queen of FNK
 
Join Date: Nov 2000
kiMMie is a jewel in the roughkiMMie is a jewel in the roughkiMMie is a jewel in the roughkiMMie is a jewel in the rough
Wicked set... sounds a little familiar :kam: *ahem*
Reply With Quote
  #9 (permalink)  
Old Nov 29, 03
Gravity Slave
 
Join Date: Apr 2001
MC Hammered has a spectacular aura aboutMC Hammered has a spectacular aura about
Yeah... you would think Dig Dug would be a bit more original eh?

But what can he do when he learns from the best?

*ahem*
Reply With Quote
  #10 (permalink)  
Old Nov 29, 03
kiMMie's Avatar
Queen of FNK
 
Join Date: Nov 2000
kiMMie is a jewel in the roughkiMMie is a jewel in the roughkiMMie is a jewel in the roughkiMMie is a jewel in the rough
:hehe: :hehe:
Reply With Quote
  #11 (permalink)  
Old Nov 29, 03
Formula - fu2clothing.com
 
Join Date: Oct 2001
dj4mula is on a distinguished road
Didnt I send u volume 2 Winston? If not, ill send it 2 u once I get my win2k setup again.
Reply With Quote
  #12 (permalink)  
Old Dec 03, 03
Gravity Slave
 
Join Date: Apr 2001
MC Hammered has a spectacular aura aboutMC Hammered has a spectacular aura about
Quote:
Originally posted by dj4mula
Didnt I send u volume 2 Winston? If not, ill send it 2 u once I get my win2k setup again.
Yes you did.

I was a tard and stuck it in the trance section for some reason.

You peeps can find in the Breaks folder.
Reply With Quote
  #13 (permalink)  
Old Dec 04, 03
Perfection was the flaw
 
Join Date: Sep 2002
Jaytimer is an unknown quantity at this point
Wow... this cd is really fuckin good... when is this guy comin' back again????
Reply With Quote
Reply

« Gob | ms*kutin »
Topic Tools
Rate This Topic
Rate This Topic:

Posting Rules
You may not post new threads
You may not post replies
You may not post attachments
You may not edit your posts

BB code is On
Smilies are On
[IMG] code is On
HTML code is Off
Trackbacks are On
Pingbacks are On
Refbacks are On

Forum Jump


All times are GMT -7. The time now is 06:40 AM.


Forum software by vBulletin
2000-2018 FNK.CA